#TITLE:Midnight Blaze;
#SUBTITLE:(System SF Mix);
#ARTIST:U1 Jewel Style;
#TITLETRANSLIT:;
#SUBTITLETRANSLIT:;
#ARTISTTRANSLIT:;
#CREDIT:;
#BANNER:;
#BACKGROUND:;
#LYRICSPATH:;
#CDTITLE:;
#MUSIC:Midnight Blaze SySF.mp3;
#MUSICLENGTH:77.975;
#OFFSET:-0.080;
#SAMPLESTART:11.925;
#SAMPLELENGTH:12.000;
#SELECTABLE:YES;
#BPMS:0.000=152.140;
#STOPS:;
#BGCHANGES:;
#FIRSTBEAT:8.000;

#LASTBEAT:194.000;

#SONGFILENAME:Songs/ERICth The 3rd/Midnight Blaze SySF/Midnight Blaze SySF.sm;

#HASMUSIC:1;

#HASBANNER:0;


//---------------dance-single - MANIAC----------------
#NOTES:
     dance-single:
     MANIAC:
     hard:
     6:
     0.451,0.529,0.385,0.038,0.000,213.000,30.000,3.000,0.000,0.000:

0000
0000
0000
0000
,
0000
0000
0000
0000
,
1000
0000
0010
0000
,
0001
0000
0010
0000
,
1000
0100
1000
0010
,
0001
0010
0100
0010
,
0001
0100
0010
0010
,
0100
0200
0000
0300
,
1010
0000
1100
0000
1010
0000
0010
0100
,
0000
0100
0001
0000
0001
1000
0001
0000
,
0100
0000
0001
0000
1000
0000
0100
0001
,
0000
0001
0100
0000
0010
0100
0010
0000
,
0010
0000
1010
0000
0011
0000
0000
1000
,
0000
1000
0100
0010
0001
0000
0000
0000
,
0100
0001
0100
0000
0100
1000
0100
0000
,
0110
0001
1000
1001
,
0011
0000
0101
0000
1010
0000
0010
0100
,
0000
0100
0001
0000
0001
1000
0001
0000
,
0100
0000
0001
0000
1000
0000
0100
0001
,
0000
0001
0100
0000
0010
0100
0010
0000
,
0010
0000
1010
0000
0011
0000
0000
1000
,
0000
1000
0100
0010
0001
0000
0000
0000
,
0100
0001
0100
0000
0100
1000
0100
0000
,
0110
0001
1000
1001
,
0020
0001
1000
0031
,
0100
0001
1000
0000
1000
0100
0001
0000
,
1000
0100
0001
0000
1000
0100
0001
0100
,
1000
0100
0001
0000
1000
0000
0010
0000
,
0010
0001
0010
0000
1000
0100
1000
0000
,
0100
0010
0100
0000
1000
0001
1000
0000
,
0100
0001
0010
0000
0100
0001
0010
0000
,
0010
0001
0100
0000
0010
0001
0100
0000
,
1001
1010
1001
0011
,
1001
1100
1001
0101
,
1000
0100
0100
0000
1000
0100
0100
0000
,
0001
0100
0100
0000
0001
0100
0100
0000
,
1001
1010
1001
0011
,
1001
1100
1001
0101
,
1000
0100
0100
0000
1000
0100
0100
0000
,
0001
0100
0100
0000
0001
0100
0100
0100
,
0010
0001
1000
0001
,
0100
0010
0100
1000
,
0001
0010
0001
1000
,
0100
0010
0001
0000
0001
0010
0100
0000
,
0000
1000
0000
0001
,
0000
0010
0000
0100
,
0000
1000
0000
0010
,
1000
0001
0010
0001
1000
0010
1000
0000
,
0020
0000
0030
0000;

//---------------dance-single - ANOTHER----------------
#NOTES:
     dance-single:
     ANOTHER:
     medium:
     4:
     0.275,0.341,0.026,0.026,0.000,146.000,2.000,2.000,0.000,0.000:

0000
0000
0000
0000
,
0000
0000
0000
0000
,
1000
0000
0000
0000
,
0010
0000
0000
0000
,
0100
0000
0000
0000
,
0010
0000
0000
0000
,
0001
0000
0000
0000
,
0010
0000
0000
0000
,
0100
1000
0001
0000
,
0100
0000
0001
0000
1000
0010
1000
0000
,
0001
0100
0010
1000
,
0001
0001
0000
0000
,
0100
0000
0010
0000
0001
0000
0000
1000
,
0000
0000
0010
1000
0010
0000
0000
0000
,
0001
0100
1000
0001
,
0100
0000
0000
0000
0001
0000
1000
0010
,
1000
0000
0100
0000
0010
0000
0000
0001
,
0000
0000
1000
0000
0100
0010
0100
0000
,
0001
1000
0100
0100
,
0010
0110
0000
0001
,
1000
0000
0010
0000
0100
0000
0000
0001
,
0000
1000
0010
0100
0010
0000
0000
0001
,
0001
0000
0100
0000
,
1000
0000
0010
0010
,
0001
0000
0000
0000
,
1000
0000
0000
0000
,
0100
0000
0000
0000
,
0001
0000
0000
0000
,
0010
1000
0000
0100
,
0010
0100
0000
0001
,
1000
0010
0000
0100
,
0001
1000
0000
0100
,
0010
0001
1000
0100
,
0100
1000
0001
0100
,
0010
0010
1000
0001
,
0100
0001
1000
1000
,
0001
0010
0100
0001
,
0001
1000
0100
0010
,
0001
1000
0010
0100
,
0100
0001
1000
0001
,
1000
0010
1000
0100
,
0010
0001
1000
0010
,
0100
0001
1000
0001
,
1000
0100
0100
0100
,
1000
0001
0100
0010
,
1000
0001
0010
0100
,
0100
1000
0001
0100
,
0001
0000
1000
0000
0100
1000
0100
0000
,
2200
0000
0000
3300
0000
0000
0000
0000;

//---------------dance-single - BASIC----------------
#NOTES:
     dance-single:
     BASIC:
     easy:
     2:
     0.214,0.277,0.000,0.141,0.000,106.000,0.000,11.000,0.000,0.000:

0000
0000
0000
0000
,
0000
0000
0000
0000
,
0020
0000
0000
0000
,
2030
0000
0000
0000
,
0000
0000
0000
0000
,
3001
0000
0000
0000
,
0001
0000
0000
0000
,
0020
0000
0100
0100
,
0130
1000
0100
0000
,
0001
0100
0001
0000
,
0010
1000
0001
0000
,
0100
0001
1000
0000
,
0100
1000
0010
0000
,
0100
0001
0010
0000
,
0100
1000
0010
0000
,
0100
0001
0001
0000
,
1000
0000
0001
0000
,
1000
0000
0010
0000
,
0100
0100
0100
0100
,
0100
0010
0010
0010
,
1000
0000
0001
0000
,
0100
0000
0001
1000
,
0100
0000
0100
0000
,
0010
0000
0001
1000
,
0001
0000
0000
0000
,
0001
0000
0000
0000
,
1000
0000
0000
0000
,
1000
0000
0000
0000
,
0100
0000
0000
0000
,
0100
0000
0000
0000
,
1000
0000
0001
0000
,
1000
0100
0001
0100
,
1000
0010
1000
0001
,
0010
0001
1000
0010
,
1000
0001
0010
0001
,
1000
0010
1000
0001
,
0010
0001
1000
0010
,
1000
0001
0010
0001
,
1000
0010
1000
0001
,
0010
0001
0100
0100
,
0200
0000
0000
0000
,
0320
0000
0000
0000
,
0032
0000
0000
0000
,
2003
0000
0000
0000
,
3002
0000
0000
0000
,
0203
0000
0000
0000
,
0320
0000
0000
0000
,
2030
0000
0000
0000
,
3010
0000
0000
0000;
